The Hunger Catching Fire 2013 720p BRRip X264 AC3-EVO

  • Category Movies
  • Type h.264/x264
  • Language English
  • Total size 3.9 GB
  • Uploaded By HeroMaster
  • Downloads 256
  • Last checked 9 months ago
  • Date uploaded 5 years ago
  • Seeders 0
  • Leechers 0

The Hunger Games: Catching Fire

ActionAdventureScience FictionThriller

Katniss Everdeen has returned home safe after winning the 74th Annual Hunger Games along with fellow tribute Peeta Mellark. Winning means that they must turn around and leave their family and close friends, embarking on a "Victor's Tour" of the districts. Along the way Katniss senses that a rebellion is simmering, but the Capitol is still very much in control as President Snow prepares the 75th Annual Hunger Games (The Quarter Quell) - a competition that could change Panem forever.

Infohash : E52CD47B4DFD825EFD6A1A522F24AAAC29358FB2



Code:

::::::: EVO PRESENTS :::::::

:::: The Hunger Catching Fire 2013 720p BRRip X264 AC3-EVO ::::

::Information::

General
Format : Matroska
Format version : Version 2
File size : 3.88 GiB
Duration : 2h 26mn
Overall bit rate : 3 801 Kbps
Writing application : HandBrake 0.9.9
Writing library : libmkv 0.6.5

Video
ID : 1
Format : AVC
Format/Info : Advanced Video Codec
Format profile : [email protected]
Format settings, CABAC : No
Format settings, ReFrames : 1 frame
Codec ID : V_MPEG4/ISO/AVC
Duration : 2h 26mn
Bit rate : 3 300 Kbps
Width : 1 280 pixels
Height : 528 pixels
Display aspect ratio : 2.40:1
Frame rate mode : Variable
Frame rate : 23.976 fps
Color space : YUV
Chroma subsampling : 4:2:0
Bit depth : 8 bits
Scan type : Progressive
Bits/(Pixel*Frame) : 0.204
Stream size : 3.35 GiB (86%)
Writing library : x264 core 130 r2273 b3065e6

Audio
ID : 2
Format : AC-3
Format/Info : Audio Coding 3
Mode extension : CM (complete main)
Codec ID : A_AC3
Duration : 2h 26mn
Bit rate mode : Constant
Bit rate : 448 Kbps
Channel(s) : 6 channels
Channel positions : Front: L C R, Side: L R, LFE
Sampling rate : 48.0 KHz
Bit depth : 16 bits
Compression mode : Lossy
Stream size : 469 MiB (12%)
Language : English
Default : Yes
Forced : No

::IMDB::

http://www.imdb.com/title/tt1951264/

::Greetz and Respect::

ALL CREDIT Goes to EVO for Encoding and Special friend for Distribution.



::More Information::



::Screenshots::

Files:

Subs
  • The.Hunger.Games.Catching.Fire.2013.720p.BRRip.x264.AC3-EVO.srt (130.3 KB)
  • The.Hunger.Games.Catching.Fire.2013.720p.BRRip.x264.AC3-EVO.mkv (3.9 GB)
  • The.Hunger.Games.Catching.Fire.2013.720p.BRRip.x264.AC3-EVO.nfo (2.5 KB)

There are currently no comments. Feel free to leave one :)

Code:

  • udp://tracker.openbittorrent.com:80/announce
  • udp://tracker.publicbt.com:80/announce
  • udp://tracker.glotorrents.com:6969/announce
  • udp://tracker.yify-torrents.com/announce
  • udp://exodus.desync.com:6969
  • udp://9.rarbg.com:2710/announce
  • udp://open.demonii.com:1337/announce
  • http://tracker.coppersurfer.tk:6969/announce