The Hunger Games Catching Fire 2013 720p BRRip X264 AC3-EVO [P2PD...

  • Category Movies
  • Type Divx/Xvid
  • Language English
  • Total size 3.9 GB
  • Uploaded By l33tSp33d
  • Downloads 39
  • Last checked 1 hour ago
  • Date uploaded 5 years ago
  • Seeders 0
  • Leechers 0

The Hunger Games: Catching Fire

ActionAdventureScience FictionThriller

Katniss Everdeen has returned home safe after winning the 74th Annual Hunger Games along with fellow tribute Peeta Mellark. Winning means that they must turn around and leave their family and close friends, embarking on a "Victor's Tour" of the districts. Along the way Katniss senses that a rebellion is simmering, but the Capitol is still very much in control as President Snow prepares the 75th Annual Hunger Games (The Quarter Quell) - a competition that could change Panem forever.

Infohash : 6EAEB6A4D7907BCE2E766BD1AB35A47E6FCD738A

The.Hunger.Games.Catching.Fire.2013.720p.BRRip.x264.AC3-EVO

Info:

Code:

General
Unique ID : 9774478251736583523538443599042400837 (0x75A7EFC3009B6D5F869E8548C2D5245)
Complete name : The.Hunger.Games.Catching.Fire.2013.720p.BRRip.x264.AC3-EVO.[P2PDL]/The.Hunger.Games.Catching.Fire.2013.720p.BRRip.x264.AC3-EVO/The.Hunger.Games.Catching.Fire.2013.720p.BRRip.x264.AC3-EVO.mkv
Format : Matroska
Format version : Version 2
File size : 3.88 GiB
Duration : 2h 26mn
Overall bit rate : 3 801 Kbps
Writing application : HandBrake 0.9.9
Writing library : libmkv 0.6.5

Video
ID : 1
Format : AVC
Format/Info : Advanced Video Codec
Format profile : [email protected]
Format settings, CABAC : No
Format settings, ReFrames : 1 frame
Codec ID : V_MPEG4/ISO/AVC
Duration : 2h 26mn
Bit rate : 3 300 Kbps
Width : 1 280 pixels
Height : 528 pixels
Display aspect ratio : 2.40:1
Frame rate mode : Variable
Frame rate : 23.976 fps
Color space : YUV
Chroma subsampling : 4:2:0
Bit depth : 8 bits
Scan type : Progressive
Bits/(Pixel*Frame) : 0.204
Stream size : 3.35 GiB (86%)
Writing library : x264 core 130 r2273 b3065e6
Encoding settings : cabac=0 / ref=1 / deblock=0:0:0 / analyse=0:0 / me=dia / subme=0 / psy=1 / psy_rd=1.00:0.00 / mixed_ref=0 / me_range=16 / chroma_me=1 / trellis=0 / 8x8dct=0 / cqm=0 / deadzone=21,11 / fast_pskip=1 / chroma_qp_offset=0 / threads=6 / lookahead_threads=1 / sliced_threads=0 / nr=0 / decimate=1 / interlaced=0 / bluray_compat=0 / constrained_intra=0 / bframes=0 / weightp=0 / keyint=240 / keyint_min=24 / scenecut=0 / intra_refresh=0 / rc_lookahead=0 / rc=abr / mbtree=0 / bitrate=3300 / ratetol=1.0 / qcomp=0.60 / qpmin=0 / qpmax=69 / qpstep=4 / vbv_maxrate=20000 / vbv_bufsize=25000 / nal_hrd=none / ip_ratio=1.40 / aq=0
Language : English
Default : Yes
Forced : No
Color primaries : BT.709-5, BT.1361, IEC 61966-2-4, SMPTE RP177
Transfer characteristics : BT.709-5, BT.1361
Matrix coefficients : BT.709-5, BT.1361, IEC 61966-2-4 709, SMPTE RP177

Audio
ID : 2
Format : AC-3
Format/Info : Audio Coding 3
Mode extension : CM (complete main)
Codec ID : A_AC3
Duration : 2h 26mn
Bit rate mode : Constant
Bit rate : 448 Kbps
Channel(s) : 6 channels
Channel positions : Front: L C R, Side: L R, LFE
Sampling rate : 48.0 KHz
Bit depth : 16 bits
Compression mode : Lossy
Stream size : 469 MiB (12%)
Language : English
Default : Yes
Forced : No

Menu
00:00:00.000 : Chapter 1
00:11:24.783 : Chapter 2
00:16:48.179 : Chapter 3
00:25:38.253 : Chapter 4
00:35:51.824 : Chapter 5
00:44:22.805 : Chapter 6
00:52:13.154 : Chapter 7
01:01:11.609 : Chapter 8
01:08:12.446 : Chapter 9
01:16:49.004 : Chapter 10
01:22:39.896 : Chapter 11
01:29:22.090 : Chapter 12
01:40:44.188 : Chapter 13
01:50:48.041 : Chapter 14
02:02:47.301 : Chapter 15
02:09:59.233 : Chapter 16




Screenshots:

Files:

The.Hunger.Games.Catching.Fire.2013.720p.BRRip.x264.AC3-EVO Subs
  • The.Hunger.Games.Catching.Fire.2013.720p.BRRip.x264.AC3-EVO.srt (130.3 KB)
  • The.Hunger.Games.Catching.Fire.2013.720p.BRRip.x264.AC3-EVO.mkv (3.9 GB)
  • The.Hunger.Games.Catching.Fire.2013.720p.BRRip.x264.AC3-EVO.nfo (2.5 KB)
    • Torrent downloaded from P2PDL.com.txt (0.0 KB)

There are currently no comments. Feel free to leave one :)

Code:

  • udp://tracker.publicbt.com:80/an​nounce
  • udp://tracker.openbittorrent.com:80/announce
  • udp://tracker.istole.it:80/annou​nce
  • udp://open.demonii.com:1337/announce
  • http://cpleft.com:2710/announce
  • http://tracker.coppersurfer.tk:6​969/announce
  • udp://9.rarbg.com:2710/announce
  • udp://9.rarbg.me:2710/announce
  • http://puto.me:6969/announce
  • udp://tracker.nwps.ws:6969/announce