The Hunger Games Catching Fire 2013 480p BRRip XviD AC3-EVO [P2PD...

  • Category Movies
  • Type Divx/Xvid
  • Language English
  • Total size 2.2 GB
  • Uploaded By l33tSp33d
  • Downloads 43
  • Last checked 7 hours ago
  • Date uploaded 5 years ago
  • Seeders 0
  • Leechers 0

The Hunger Games: Catching Fire

ActionAdventureScience FictionThriller

Katniss Everdeen has returned home safe after winning the 74th Annual Hunger Games along with fellow tribute Peeta Mellark. Winning means that they must turn around and leave their family and close friends, embarking on a "Victor's Tour" of the districts. Along the way Katniss senses that a rebellion is simmering, but the Capitol is still very much in control as President Snow prepares the 75th Annual Hunger Games (The Quarter Quell) - a competition that could change Panem forever.

Infohash : 8547D316F0D00F1CF4881B37F58DCC90A4E49B75

The.Hunger.Games.Catching.Fire.2013.480p.BRRip.XviD.AC3-EVO

Info:

Code:

General
Complete name : The.Hunger.Games.Catching.Fire.2013.480p.BRRip.XviD.AC3-EVO.[P2PDL]/The.Hunger.Games.Catching.Fire.2013.480p.BRRip.XviD.AC3-EVO/The.Hunger.Games.Catching.Fire.2013.480p.BRRip.XviD.AC3-EVO.avi
Format : AVI
Format/Info : Audio Video Interleave
Format profile : OpenDML
File size : 2.20 GiB
Duration : 2h 26mn
Overall bit rate : 2 157 Kbps
Writing library : VirtualDub build 32593/release

Video
ID : 0
Format : MPEG-4 Visual
Format profile : Advanced [email protected]
Format settings, BVOP : 2
Format settings, QPel : No
Format settings, GMC : No warppoints
Format settings, Matrix : Default (H.263)
Muxing mode : Packed bitstream
Codec ID : XVID
Codec ID/Hint : XviD
Duration : 2h 26mn
Bit rate : 1 697 Kbps
Width : 720 pixels
Height : 304 pixels
Display aspect ratio : 2.35:1
Frame rate : 23.976 fps
Color space : YUV
Chroma subsampling : 4:2:0
Bit depth : 8 bits
Scan type : Progressive
Compression mode : Lossy
Bits/(Pixel*Frame) : 0.323
Stream size : 1.73 GiB (79%)
Writing library : XviD 64

Audio
ID : 1
Format : AC-3
Format/Info : Audio Coding 3
Mode extension : CM (complete main)
Codec ID : 2000
Duration : 2h 26mn
Bit rate mode : Constant
Bit rate : 448 Kbps
Channel(s) : 6 channels
Channel positions : Front: L C R, Side: L R, LFE
Sampling rate : 48.0 KHz
Bit depth : 16 bits
Compression mode : Lossy
Stream size : 469 MiB (21%)
Alignment : Aligned on interleaves
Interleave, duration : 42 ms (1.00 video frame)
Interleave, preload duration : 512 ms




Screenshots:

Files:

The.Hunger.Games.Catching.Fire.2013.480p.BRRip.XviD.AC3-EVO
  • RARBG.com.txt (0.0 KB)
  • Subs
    • The.Hunger.Games.Catching.Fire.2013.480p.BRRip.XviD.AC3-EVO.srt (130.3 KB)
  • The.Hunger.Games.Catching.Fire.2013.480p.BRRip.XviD.AC3-EVO.avi (2.2 GB)
    • Torrent downloaded from P2PDL.com.txt (0.0 KB)

There are currently no comments. Feel free to leave one :)

Code:

  • udp://tracker.publicbt.com:80/an​nounce
  • udp://tracker.openbittorrent.com:80/announce
  • udp://tracker.istole.it:80/annou​nce
  • udp://open.demonii.com:1337/announce
  • http://cpleft.com:2710/announce
  • http://tracker.coppersurfer.tk:6​969/announce
  • udp://9.rarbg.com:2710/announce
  • udp://9.rarbg.me:2710/announce
  • http://puto.me:6969/announce
  • udp://tracker.nwps.ws:6969/announce