The Hunger Games Catching Fire 2013 BRRip XViD NO1KNOWS [P2PDL]

  • Category Movies
  • Type Divx/Xvid
  • Language English
  • Total size 1.4 GB
  • Uploaded By l33tSp33d
  • Downloads 115
  • Last checked 9 months ago
  • Date uploaded 5 years ago
  • Seeders 1
  • Leechers 0

Infohash : 210E0C64028F66E1E8BBE73AA99716FBC351717D

The.Hunger.Games.Catching.Fire.2013.BRRip.XViD.NO1KNOWS

Info:

Code:

General
Complete name : The.Hunger.Games.Catching.Fire.2013.BRRip.XViD.NO1KNOWS.[P2PDL]/The.Hunger.Games.Catching.Fire.2013 BRRip XViD NO1KNOWS/The.Hunger.Games.Catching.Fire.2013 BRRip XViD NO1KNOWS.avi
Format : AVI
Format/Info : Audio Video Interleave
File size : 1.39 GiB
Duration : 2h 26mn
Overall bit rate : 1 362 Kbps
Writing library : VirtualDub build 35491/release

Video
ID : 0
Format : MPEG-4 Visual
Format profile : Advanced [email protected]
Format settings, BVOP : 2
Format settings, QPel : No
Format settings, GMC : No warppoints
Format settings, Matrix : Default (H.263)
Muxing mode : Packed bitstream
Codec ID : XVID
Codec ID/Hint : XviD
Duration : 2h 26mn
Bit rate : 1 128 Kbps
Width : 720 pixels
Height : 304 pixels
Display aspect ratio : 2.35:1
Frame rate : 23.976 fps
Color space : YUV
Chroma subsampling : 4:2:0
Bit depth : 8 bits
Scan type : Progressive
Compression mode : Lossy
Bits/(Pixel*Frame) : 0.215
Stream size : 1.15 GiB (83%)
Writing library : XviD 64

Audio
ID : 1
Format : AC-3
Format/Info : Audio Coding 3
Mode extension : CM (complete main)
Codec ID : 2000
Duration : 2h 26mn
Bit rate mode : Constant
Bit rate : 224 Kbps
Channel(s) : 6 channels
Channel positions : Front: L C R, Side: L R, LFE
Sampling rate : 48.0 KHz
Bit depth : 16 bits
Compression mode : Lossy
Stream size : 234 MiB (16%)
Alignment : Aligned on interleaves
Interleave, duration : 42 ms (1.00 video frame)
Interleave, preload duration : 512 ms




Screenshots:

Files:

The.Hunger.Games.Catching.Fire.2013 BRRip XViD NO1KNOWS
  • The.Hunger.Games.Catching.Fire.2013 BRRip XViD NO1KNOWS.avi (1.4 GB)
  • The.Hunger.Games.Catching.Fire.2013 BRRip XViD NO1KNOWS.srt (106.4 KB)
  • sample.avi (14.5 MB)
  • Torrent downloaded from P2PDL.com.txt (0.0 KB)

There are currently no comments. Feel free to leave one :)

Code:

  • udp://tracker.publicbt.com:80/an​nounce
  • udp://tracker.openbittorrent.com:80/announce
  • udp://tracker.istole.it:80/annou​nce
  • udp://open.demonii.com:1337/announce
  • http://cpleft.com:2710/announce
  • http://tracker.coppersurfer.tk:6​969/announce
  • udp://9.rarbg.com:2710/announce
  • udp://9.rarbg.me:2710/announce
  • http://puto.me:6969/announce
  • udp://tracker.nwps.ws:6969/announce