lucas bros moving company s01e03 hdtv x264-2hd mp4 [P2PDL]

  • Category TV
  • Type Divx/Xvid
  • Language English
  • Total size 33.9 MB
  • Uploaded By l33tSp33d
  • Downloads 27
  • Last checked 12 hours ago
  • Date uploaded 5 years ago
  • Seeders 0
  • Leechers 0

Infohash : 60305854027251DE7A90D7C147DE7534A9C6BB14

lucas.bros.moving.company.s01e03.hdtv.x264-2hd.mp4

Info:

Code:

General
Complete name : lucas.bros.moving.company.s01e03.hdtv.x264-2hd.mp4.[P2PDL]/lucas.bros.moving.company.s01e03.hdtv.x264-2hd.mp4
Format : MPEG-4
Format profile : Base Media
Codec ID : isom
File size : 33.9 MiB
Duration : 10mn 17s
Overall bit rate mode : Variable
Overall bit rate : 460 Kbps
Encoded date : UTC 2014-01-19 04:20:37
Tagged date : UTC 2014-01-19 04:20:37

Video
ID : 1
Format : AVC
Format/Info : Advanced Video Codec
Format profile : [email protected]
Format settings, CABAC : Yes
Format settings, ReFrames : 5 frames
Codec ID : avc1
Codec ID/Info : Advanced Video Coding
Duration : 10mn 17s
Bit rate : 332 Kbps
Maximum bit rate : 3 072 Kbps
Width : 720 pixels
Height : 404 pixels
Display aspect ratio : 16:9
Frame rate mode : Constant
Frame rate : 23.976 fps
Color space : YUV
Chroma subsampling : 4:2:0
Bit depth : 8 bits
Scan type : Progressive
Bits/(Pixel*Frame) : 0.048
Stream size : 24.5 MiB (72%)
Writing library : x264 core 140 r2377 1ca7bb9
Encoding settings : cabac=1 / ref=5 / deblock=1:0:0 / analyse=0x3:0x113 / me=umh / subme=8 / psy=1 / psy_rd=1.00:0.00 / mixed_ref=1 / me_range=16 / chroma_me=1 / trellis=1 / 8x8dct=1 / cqm=0 / deadzone=21,11 / fast_pskip=1 / chroma_qp_offset=-2 / threads=6 / lookahead_threads=1 / sliced_threads=0 / nr=0 / decimate=1 / interlaced=0 / bluray_compat=0 / constrained_intra=0 / bframes=3 / b_pyramid=2 / b_adapt=2 / b_bias=0 / direct=3 / weightb=1 / open_gop=0 / weightp=2 / keyint=250 / keyint_min=23 / scenecut=40 / intra_refresh=0 / rc_lookahead=50 / rc=crf / mbtree=1 / crf=19.0 / qcomp=0.60 / qpmin=0 / qpmax=69 / qpstep=4 / ip_ratio=1.40 / aq=1:1.00
Encoded date : UTC 2014-01-19 04:12:07
Tagged date : UTC 2014-01-19 04:20:37
Matrix coefficients : BT.709-5, BT.1361, IEC 61966-2-4 709, SMPTE RP177

Audio
ID : 2
Format : AAC
Format/Info : Advanced Audio Codec
Format profile : LC
Codec ID : 40
Duration : 10mn 17s
Bit rate mode : Variable
Bit rate : 123 Kbps
Maximum bit rate : 207 Kbps
Channel(s) : 2 channels
Channel positions : Front: L R
Sampling rate : 48.0 KHz
Compression mode : Lossy
Stream size : 9.08 MiB (27%)
Encoded date : UTC 2014-01-19 04:20:37
Tagged date : UTC 2014-01-19 04:20:37




Screenshots:

Files:

  • Torrent downloaded from P2PDL.com.txt (0.0 KB)
  • lucas.bros.moving.company.s01e03.hdtv.x264-2hd.mp4 (33.9 MB)

There are currently no comments. Feel free to leave one :)

Code:

  • udp://tracker.publicbt.com:80/an​nounce
  • udp://tracker.openbittorrent.com:80/announce
  • udp://tracker.istole.it:80/annou​nce
  • udp://open.demonii.com:1337/announce
  • http://cpleft.com:2710/announce
  • http://tracker.coppersurfer.tk:6​969/announce
  • udp://9.rarbg.com:2710/announce
  • udp://9.rarbg.me:2710/announce
  • http://puto.me:6969/announce
  • udp://tracker.nwps.ws:6969/announce