Baggage Claim 2013 720p WEB-DL 6CH x264 Pim4003

  • Category Movies
  • Type HD
  • Language English
  • Total size 2.2 GB
  • Uploaded By pimp4003
  • Downloads 47
  • Last checked 23 hours ago
  • Date uploaded 5 years ago
  • Seeders 0
  • Leechers 0

Baggage Claim

Comedy

Pledging to keep herself from being the oldest and the only woman in her entire family never to wed, Montana embarks on a thirty-day, thirty-thousand-mile expedition to charm a potential suitor into becoming her fiancé.

Infohash : D53FBBA040C6C64B105BD5BA66FE5BDDF3BA6201

Get all Pimp4003 newest releases first at

WWW.PIMP4003.NET with VIP downloads speed

Register here and you can chat, request movies, view upcoming uploads and much more

UPLOAD UNLIMITED IMAGES AND UP TO 10MB IN FILE SIZES FOR FREE....

http://www.piczhub.com

http://www.facebook.com/Pimp4003.net

PIMP4003 AND PIMPRG PRESENTS

Baggage Claim 2013 720p WEB-DL 6CH x264 Pim4003

http://www.imdb.com/title/tt1171222/

Pledging to keep herself from being the oldest and the only woman in her entire family never to wed, Montana embarks on a thirty-day, thirty-thousand-mile expedition to charm a potential suitor into becoming her fiancé.

Director: David E. Talbert
Writer: David E. Talbert (screenplay)
Stars: Paula Patton, Taye Diggs, Jill Scott | See full cast and crew »

Genre: Romance | Comedy
File Size: 2.23GB
Source: MaNuDiL
Language: ENGLISH
SUBS: N/A

Video
ID : 2
Format : AVC
Format/Info : Advanced Video Codec
Format profile : [email protected]
Format settings, CABAC : No
Format settings, ReFrames : 1 frame
Format settings, GOP : M=1, N=25
Muxing mode : Container [email protected]
Codec ID : avc1
Codec ID/Info : Advanced Video Coding
Duration : 1h 36mn
Bit rate : 3 127 Kbps
Width : 1 280 pixels
Height : 720 pixels
Display aspect ratio : 16:9
Frame rate mode : Constant
Frame rate : 23.976 fps
Original frame rate : 23.000 fps
Color space : YUV
Chroma subsampling : 4:2:0
Bit depth : 8 bits
Scan type : Progressive
Bits/(Pixel*Frame) : 0.142
Stream size : 2.11 GiB (94%)
Writing library : Ä
Language : English

Audio
ID : 1
Format : AAC
Format/Info : Advanced Audio Codec
Format profile : LC
Codec ID : 40
Duration : 1h 36mn
Bit rate mode : Constant
Bit rate : 192 Kbps
Channel(s) : 6 channels
Channel positions : Front: L C R, Side: L R, LFE
Sampling rate : 48.0 KHz
Compression mode : Lossy
Stream size : 133 MiB (6%)
Language : English



ALWAYS ON SEED BOX

GREETZ TO PIMPRG AND ALL OTHER GROUPS

Pimp4003 | SUJAIDR | PIMPRG | JUNAIDZIA | RICKYKT | LOKKIODDIN | SCENEDL | Ali1997 | AND ALL OTHER P2P AND SCENE GROUPS

Files:

  • [WWW.PIMP4003.NET] Baggage Claim 2013 720p HDRip x264 Pim4003.mp4 (2.2 GB)
  • Torrent downloaded from pimp4003 torrents at BTS.to.txt (0.1 KB)
  • Torrent Downloaded From Pimp4003.net.txt (0.1 KB)

There are currently no comments. Feel free to leave one :)

Code:

  • http://tracker1.wasabii.com.tw:6969/announce
  • udp://open.demonii.com:1337/announce
  • udp://tracker.istole.it:80/announce
  • udp://tracker.publicbt.com:80/announce
  • udp://tracker.openbittorrent.com:80/announce
  • udp://9.rarbg.com:2710/announce