Ram Leela 2013 Hindi Movies DVDRip x264 ESubs with Sample ~ ☻rDX☻...

  • Category Movies
  • Type DVD
  • Language Hindi
  • Total size 704.7 MB
  • Uploaded By jay6star
  • Downloads 1758
  • Last checked 3 days ago
  • Date uploaded 5 years ago
  • Seeders 0
  • Leechers 0

Goliyon Ki Raasleela Ram-Leela

DramaRomance

Goliyon Ki Raasleela Ram-Leela is an adaptation of Shakespeare's Romeo and Juliet, set in violent times.

Infohash : 65356294987577B5D1DC0B8B700F50223B845986



Ram Leela 2013 Hindi Movies DVDRip x264 ESubs with Sample ~ ☻rDX☻

Please check SCREEN SHOTS first :

http://moviesreview.cu.cc/2014/1/RamLeelaDVD/1.html

http://moviesreview.cu.cc/2014/1/RamLeelaDVD/2.html

http://moviesreview.cu.cc/2014/1/RamLeelaDVD/3.html

http://moviesreview.cu.cc/2014/1/RamLeelaDVD/4.html

http://moviesreview.cu.cc/2014/1/RamLeelaDVD/5.html

http://moviesreview.cu.cc/2014/1/RamLeelaDVD/6.html


All rDX torrents are Seeding From the 1Gbps Seedbox 24X7

[size=35want to use our seed box For free, PM me. [/size]







Format : Matroska
Format version : Version 4 / Version 2
File size : 698 MiB
Duration : 2h 29mn
Overall bit rate : 652 Kbps

Video
ID : 1
Format : AVC
Format/Info : Advanced Video Codec
Format profile : [email protected]
Format settings, CABAC : Yes
Format settings, ReFrames : 4 frames
Codec ID : V_MPEG4/ISO/AVC
Duration : 2h 29mn
Bit rate : 586 Kbps
Width : 640 pixels
Height : 272 pixels
Display aspect ratio : 2.35:1
Frame rate mode : Constant
Frame rate : 25.000 fps
Color space : YUV
Chroma subsampling : 4:2:0
Bit depth : 8 bits
Scan type : Progressive
Bits/(Pixel*Frame) : 0.135
Stream size : 615 MiB (88%)
Title : rDX
Writing library : x264
Language : Hindi
Default : Yes
Forced : No

Audio
ID : 2
Format : MPEG Audio
Format version : Version 2
Format profile : Layer 3
Mode : Joint stereo
Mode extension : MS Stereo
Codec ID : A_MPEG/L3
Codec ID/Hint : MP3
Duration : 2h 30mn
Bit rate mode : Constant
Bit rate : 64.0 Kbps
Channel(s) : 2 channels
Sampling rate : 24.0 KHz
Compression mode : Lossy
Stream size : 68.7 MiB (10%)
Title : rDX
Writing library : LAME3.99r
Encoding settings : -m j -V 4 -q 2 -lowpass 11 -b 64
Language : Hindi
Default : Yes
Forced : No

Files:

  • Ram Leela 2013 Hindi Movies DVDRip x264 ~ ☻rDX☻.mkv (697.6 MB)
  • Sample ~ Ram Leela 2013 Hindi Movies DVDRip x264 ~ ☻rDX☻.mkv (7.1 MB)

There are currently no comments. Feel free to leave one :)

Code:

  • udp://tracker.publicbt.com:80/announce
  • udp://tracker.openbittorrent.com:80/announce
  • udp://tracker.istole.it:80/announce
  • http://fr33dom.h33t.com:3310/announce
  • udp://fr33dom.h33t.com:3310/announce
  • udp://11.rarbg.com:80/announce
  • udp://fr33domtracker.h33t.com:3310/announce
  • udp://9.rarbg.com:2710/announce
  • http://tracker.ex.ua/announce
  • udp://www.h33t.com:3310/announce