Moto.5.The.Movie.2013.720p.BRRip.x264-Fastbet99

  • Category Movies
  • Type Mp4
  • Language English
  • Total size 750.0 MB
  • Uploaded By Fastbet99
  • Downloads 224
  • Last checked 1 hour ago
  • Date uploaded 5 years ago
  • Seeders 2
  • Leechers 0

Moto 5: The Movie

Action

From the creators of the epic film series 'MOTO The Movie', The Assignment Inc. is proud to present their latest and most anticipated installment to the film franchise, MOTO 5. Without reservation this is by far the biggest and baddest of the MOTO The Movie films. Tag along with upcoming star Cooper Webb as he escapes to the exclusive Chaney Ranch to reflect on his first season as a pro; watch Tyler Bereman hone his bike skills in the Washingon Dunes and SoCal hills; see how Adam Cianciarulo shadows Ryan Villopoto in hopes of becoming one of the greats; go on a sand-blasting, soul-searching journey into the desert with X-Games superstar Ronnie Renner; watch Zach Osborne train to be one of the most diverse MX and off-road riders on the planeth

Infohash : 8449B31FE8F98FCC11845E0DA36EF1791BAFDF07

Moto 5 The Movies (2013)

IMDB Info : http://www.imdb.com/title/tt1333125

Source : XSTREEM (Thanks)
Complete name : Moto.5.The.Movie.2013.720p.BRRip.x264-Fastbet99.mp4
Format : MPEG-4
Format profile : Base Media
Codec ID : isom
File size : 750 MiB
Duration : 57mn 1s
Overall bit rate mode : Variable
Overall bit rate : 1 839 Kbps

Video
ID : 1
Format : AVC
Format/Info : Advanced Video Codec
Format profile : [email protected]
Format settings, CABAC : Yes
Format settings, ReFrames : 4 frames
Codec ID : avc1
Codec ID/Info : Advanced Video Coding
Duration : 57mn 1s
Bit rate : 1 739 Kbps
Maximum bit rate : 10.2 Mbps
Width : 1 280 pixels
Height : 656 pixels
Display aspect ratio : 1.951
Frame rate mode : Constant
Frame rate : 23.976 fps
Color space : YUV
Chroma subsampling : 4:2:0
Bit depth : 8 bits
Scan type : Progressive
Bits/(Pixel*Frame) : 0.086
Stream size : 709 MiB (95%)
Writing library : x264 core 138 r2358 9e941d1

Audio
ID : 2
Format : AAC
Format/Info : Advanced Audio Codec
Format profile : LC
Codec ID : 40
Duration : 57mn 1s
Bit rate mode : Variable
Bit rate : 96.0 Kbps
Maximum bit rate : 154 Kbps
Channel count : 2 channels
Channel positions : Front: L R
Sampling rate : 48.0 KHz
Compression mode : Lossy
Stream size : 39.1 MiB (5%)
Language : English
Encoder : Fastbet99

Files:

  • Moto.5.The.Movie.2013.720p.BRRip.x264-Fastbet99.mp4 (749.8 MB)
  • Moto.5.The.Movie.2013.720p.BRRip.x264-Fastbet99.mp4.jpg (196.8 KB)
  • NFO.txt (2.6 KB)
  • read me.txt (0.1 KB)

There are currently no comments. Feel free to leave one :)

Code:

  • udp://tracker.openbittorrent.com:80/announce
  • udp://tracker.publicbt.com:80/announce
  • udp://open.demonii.com:1337/announce
  • udp://tracker.coppersurfer.tk:6969/announce
  • http://p2pdl.com:2710/announce
  • udp://tracker.yify-torrents.com/announce
  • udp://12.rarbg.me:80/announce
  • udp://tracker.publicbt.com:80