Goliyon Ki Rasleela Ram-Leela (2013) - 1CD - Screening DVDRip - H...

  • Category Movies
  • Type h.264/x264
  • Language Hindi
  • Total size 703.3 MB
  • Uploaded By Mafiaking
  • Downloads 13395
  • Last checked 10 minutes ago
  • Date uploaded 5 years ago
  • Seeders 1
  • Leechers 1

Infohash : 4BD0121FB7E3E55F4161D92110E4F6BC53775684







Quote:




General
Unique ID : 220934890086423434420177727541238410672 (0xA6368316373793F3B2BD6C2D54A1ADB0)
Complete name : Goliyon Ki Rasleela Ram-Leela (2013) - 1CD - Screening DVDRip - Hindi - x264 - MP3 - ESubs - Mafiaking.mkv
Format : Matroska
Format version : Version 4 / Version 2
File size : 700 MiB
Duration : 2h 30mn
Overall bit rate : 652 Kbps
Movie name : Goliyon Ki Rasleela Ram-Leela (2013) - 1CD - Screening DVDRip - Hindi - x264 - MP3 - ESubs - Mafiaking
Encoded date : UTC 2014-01-19 12:57:23
Writing application : mkvmerge v6.6.0 ('The Edge Of The In Between') built on Dec 1 2013 17:55:00
Writing library : libebml v1.3.0 + libmatroska v1.4.1


Video
ID : 1
Format : AVC
Format/Info : Advanced Video Codec
Format profile : [email protected]
Format settings, CABAC : Yes
Format settings, ReFrames : 4 frames
Codec ID : V_MPEG4/ISO/AVC
Duration : 2h 30mn
Bit rate : 586 Kbps
Width : 640 pixels
Height : 272 pixels
Display aspect ratio : 2.35:1
Frame rate mode : Constant
Frame rate : 25.000 fps
Color space : YUV
Chroma subsampling : 4:2:0
Bit depth : 8 bits
Scan type : Progressive
Bits/(Pixel*Frame) : 0.135
Stream size : 617 MiB (88%)
Title : Mafiaking

Language : Hindi
Default : Yes
Forced : No


Audio
ID : 2
Format : MPEG Audio
Format version : Version 2
Format profile : Layer 3
Mode : Joint stereo
Mode extension : MS Stereo
Codec ID : A_MPEG/L3
Codec ID/Hint : MP3
Duration : 2h 30mn
Bit rate mode : Constant
Bit rate : 64.0 Kbps
Channel(s) : 2 channels
Sampling rate : 24.0 KHz
Compression mode : Lossy
Stream size : 68.7 MiB (10%)
Title : Mafiaking
Writing library : LAME3.99r
Language : Hindi
Default : Yes
Forced : No


SAMPLE WITH IN TORRENT

























































Files:

  • Goliyon Ki Rasleela Ram-Leela (2013) - 1CD - Screening DVDRip - Hindi - x264 - MP3 - ESubs - Mafiaking.mkv (699.8 MB)
  • SaMple-Goliyon Ki Rasleela Ram-Leela (2013) - 1CD - Screening DVDRip - Hindi - x264 - MP3 - ESubs - Mafiaking.mkv (3.5 MB)
  • Torrent Downloaded From ExtraTorrent.cc.txt (0.3 KB)

There are currently no comments. Feel free to leave one :)

Code:

  • http://94.228.192.98/announce
  • http://bttracker.crunchbanglinux.org:6969/announce
  • http://tracker1.wasabii.com.tw:6969/announce
  • http://tracker.torrentfrancais.com/announce
  • http://tracker.nwps.ws:6969/announce
  • udp://9.rarbg.com:2710/announce
  • udp://10.rarbg.com/announce
  • udp://11.rarbg.com:80/announce
  • udp://open.demonii.com:1337/announce
  • udp://tracker.publicbt.com:80/announce
  • udp://tracker.openbittorrent.com:80/announce
  • udp://tracker.istole.it:80/announce
  • udp://coppersurfer.tk:6969/announce
  • udp://pow7.com:80/announce
  • udp://tracker.prq.to:80/announce