Social.Nightmare.2013.720p.BRRip.x264-Fastbet99

  • Category Movies
  • Type Mp4
  • Language English
  • Total size 1.1 GB
  • Uploaded By Fastbet99
  • Downloads 29
  • Last checked 2 days ago
  • Date uploaded 5 years ago
  • Seeders 0
  • Leechers 0

Social Nightmare

DramaMystery

A student's chances of getting into a good college hang in the balance when inappropriate photos of her are posted on the Internet.

Infohash : AB22C4890238EBD8C46CE426BF30790244587CED


Social Nightmare (2013)

IMDB Info : http://www.imdb.com/title/tt2953196

Source : BRMP (Thanks)
Complete name : Social.Nightmare.2013.720p.BRRip.x264-Fastbet99.mp4
Format : MPEG-4
Format profile : Base Media
Codec ID : isom
File size : 1.09 GiB
Duration : 1h 31mn
Overall bit rate mode : Variable
Overall bit rate : 1 711 Kbps

Video
ID : 1
Format : AVC
Format/Info : Advanced Video Codec
Format profile : [email protected]
Format settings, CABAC : Yes
Format settings, ReFrames : 4 frames
Codec ID : avc1
Codec ID/Info : Advanced Video Coding
Duration : 1h 31mn
Bit rate : 1 613 Kbps
Maximum bit rate : 11.7 Mbps
Width : 1 280 pixels
Height : 720 pixels
Display aspect ratio : 16:9
Frame rate mode : Constant
Frame rate : 23.976 fps
Color space : YUV
Chroma subsampling : 4:2:0
Bit depth : 8 bits
Scan type : Progressive
Bits/(Pixel*Frame) : 0.073
Stream size : 1.03 GiB (94%)
Writing library : x264 core 138 r2358 9e941d1

Audio
ID : 2
Format : AAC
Format/Info : Advanced Audio Codec
Format profile : LC
Codec ID : 40
Duration : 1h 31mn
Bit rate mode : Variable
Bit rate : 96.0 Kbps
Maximum bit rate : 108 Kbps
Channel count : 2 channels
Channel positions : Front: L R
Sampling rate : 48.0 KHz
Compression mode : Lossy
Stream size : 62.8 MiB (6%)
Encoder : Fastbet99

Files:

  • NFO.txt (2.5 KB)
  • read me.txt (0.1 KB)
  • Social.Nightmare.2013.720p.BRRip.x264-Fastbet99.mp4 (1.1 GB)
  • Social.Nightmare.2013.720p.BRRip.x264-Fastbet99.mp4.jpg (174.9 KB)

There are currently no comments. Feel free to leave one :)

Code:

  • udp://tracker.openbittorrent.com:80/announce
  • udp://tracker.publicbt.com:80/announce
  • udp://open.demonii.com:1337/announce
  • udp://tracker.coppersurfer.tk:6969/announce
  • http://p2pdl.com:2710/announce
  • udp://tracker.yify-torrents.com/announce
  • udp://12.rarbg.me:80/announce
  • udp://tracker.publicbt.com:80